<?xml version="1.0" standalone="no"?>
<!DOCTYPE svg PUBLIC "-//W3C//DTD SVG 1.1//EN" "http://www.w3.org/Graphics/SVG/1.1/DTD/svg11.dtd">
<svg xmlns="http://www.w3.org/2000/svg">
<metadata>Copyright (C) 2015 by original authors @ fontello.com</metadata>
<defs>
<font id="social" horiz-adv-x="1000" >
<font-face font-family="social" font-weight="400" font-stretch="normal" units-per-em="1000" ascent="850" descent="-150" />
<missing-glyph horiz-adv-x="1000" />
<glyph glyph-name="mailru" unicode="&#xe800;" d="m997 425c-14 129-82 244-193 324-120 86-275 119-414 88-133-29-249-115-320-234-70-119-89-263-50-393 20-71 57-137 106-192 49-55 110-99 178-128 62-26 128-39 194-39 91 0 180 24 259 72l-56 93c-107-65-240-75-355-26-107 45-190 138-223 250-30 102-15 214 40 308 56 94 147 161 250 184 110 24 233-2 327-70 86-62 139-150 149-248 7-64 1-114-17-149-38-74-94-75-116-71-1 0-1 0-2 0-6 10-5 46-5 62 0 6 0 12 0 17v296h-82c-11 9-22 17-34 24-45 27-97 41-151 41-77 0-149-28-203-79-86-80-113-213-65-322 23-52 61-95 111-124 46-28 100-43 157-43 64 0 123 18 171 52 5 4 10 7 15 11 17-23 42-38 72-42 43-7 86 0 124 20 43 22 78 59 104 109 28 55 38 123 29 209z m-357-168c-2-3-6-8-8-10-1-2-3-4-4-5-10-14-23-26-37-36-30-21-67-31-109-31-77 0-142 39-169 101-30 68-13 151 40 200 33 32 80 50 129 50 34 0 67-9 96-26 18-11 34-25 47-41 1-2 3-4 5-6 2-3 7-9 10-13v-183z" horiz-adv-x="1000" />
<glyph glyph-name="evernote" unicode="&#xe801;" d="m275 635l-162 0 203 204 0-165-41-39z m574 81c-17 29-107 64-154 64-47 0-121 0-121 0s-39 70-130 70c-92 0-85-41-85-75v-141l-42-44h-191c0 0-54-35-54-112 0-77 24-345 185-370 189-30 222 59 222 69 0 45 1 112 1 112s56-106 139-106c84 0 133-48 133-98 0-49 0-92 0-92s-3-57-52-57c-50 0-106 0-106 0s-34 27-34 64c0 37 17 48 36 48s36-3 36-3v79c0 0-159 1-159-121 0-122 84-153 150-153 67 0 109 0 109 0s196 25 196 413c0 387-61 423-79 453z m-195-347c0 0 10 63 47 63s88-85 88-85-116 22-135 22z" horiz-adv-x="1000" />
<glyph glyph-name="friendfied" unicode="&#xe802;" d="m800 670l12 6c3 1 9 2 14 2h3l54-7 23-3 23-1v169l-163 14c-6 0-14 0-26 0l-18-4c-22-3-42-10-57-19l-35-27h2c-20-19-38-40-46-67-3-6-6-13-7-20-2-7-2-13-3-20 0-7 0-15 0-22 0-7 0-11 0-18 0-96-3-143-5-143h-45l-148 1c0 1-1 36-1 106 0 16 4 28 11 40 5 4 9 10 15 13l11 6c3 1 9 2 14 2h3l55-7 23-3 23-1v169l-164 14c-5 0-14 0-25 0l-19-4c-21-3-41-10-57-19l-34-27h1c-20-19-37-40-46-67-3-6-6-13-7-20-1-7-1-13-3-20 0-7 0-15 0-22 0-7 0-11 0-18 0-96-3-143-4-143h-103v-166-2h107v-492h199v488l127 4h72v-492h199v488l149 4v168l-148 1c0 1-1 36-1 106 0 16 4 28 11 40 4 4 9 10 14 13z" horiz-adv-x="1000" />
<glyph glyph-name="newsvine" unicode="&#xe803;" d="m535 204l119 87c11-7 24-11 38-11 39 0 71 32 71 71 0 39-32 71-71 71-39 0-71-32-71-71 0-3 0-6 1-9l-87-63v197l120 88c11-7 24-11 37-11 39 0 71 32 71 71s-32 71-71 71c-39 0-71-32-71-71 0-3 0-7 1-10l-87-63v299h-69v-158l-88 64c0 4 1 8 1 13 0 39-32 71-71 71-39 0-71-32-71-71 0-39 32-71 71-71 12 0 24 3 34 9l124-90v-197l-88 64c0 4 1 8 1 12 0 39-32 71-71 71-39 0-71-32-71-71 0-39 32-71 71-71 13 0 25 3 35 9l123-88v-211l-88 64c0 4 1 8 1 11 0 40-32 71-71 71-39 0-71-31-71-71 0-39 32-70 71-70 13 0 25 3 35 9l123-88v-211h5 61 3v69l119 87c11-7 24-11 38-11 39 0 71 32 71 71s-32 71-71 71c-39 0-71-32-71-71 0-3 0-6 1-9l-87-63v210h0z" horiz-adv-x="1000" />
<glyph glyph-name="odnolassniki" unicode="&#xe804;" d="m451 146c-78 8-148 27-207 74-8 5-16 11-22 18-26 25-29 54-8 83 17 26 47 32 78 18 6-3 12-6 17-10 112-77 265-79 377-4 11 9 23 16 37 19 26 7 51-3 66-26 16-27 16-53-4-74-31-31-69-54-110-70-39-16-82-23-124-28 6-7 9-11 13-15 58-57 115-115 173-173 19-20 23-45 13-68-12-25-38-41-64-39-17 1-29 9-41 20-43 44-87 87-130 132-12 13-18 10-29-1-44-45-88-90-133-134-20-19-44-23-67-12-25 12-41 38-40 63 1 17 10 30 21 42 57 57 114 114 171 171 4 4 7 8 13 14z m47 198c-138 0-252 115-251 254 1 140 114 252 254 252 140 0 252-115 252-256-1-139-115-251-255-250z m126 253c0 69-55 124-124 124-69 0-124-56-124-125 1-69 56-123 125-123 68 0 123 55 123 124z" horiz-adv-x="1000" />
<glyph glyph-name="ping" unicode="&#xe805;" d="m0 580c27 5 64 8 113 8 54 0 93-11 119-33 24-19 40-51 40-88 0-38-12-69-35-90-30-29-75-43-128-43-13 0-25 0-36 3v-152h-73v395z m73-186c10-3 21-3 36-3 56 0 89 27 89 73 0 45-31 68-82 68-20 0-35-2-43-4v-134z m223-209v289h73v-289h-73z m123 203c0 33-1 61-2 86h64l4-43h2c13 22 45 50 93 50 51 0 104-33 104-124v-172h-74v163c0 42-15 73-56 73-29 0-49-20-57-42-3-6-4-15-4-24v-170h-74v203z m579-161c0-60-13-104-44-131-30-27-72-35-113-35-37 0-76 8-102 23l17 55c18-10 49-21 85-21 48 0 84 24 84 87v25h-1c-17-26-46-43-86-43-72 0-124 59-124 141 0 95 63 153 133 153 45 0 71-22 85-45h1l3 38h64c-1-19-2-43-2-83v-164h0z m-74 131c0 8-1 14-3 20-7 27-28 47-60 47-41 0-72-36-72-94 0-50 25-89 72-89 27 0 51 17 60 44 2 7 3 17 3 26v46z m-591 281c-37 0-66-29-66-66s29-65 66-65c36 0 66 29 66 65s-30 66-66 66z m0-118c-29 0-53 23-53 52s24 53 53 53c29 0 53-24 53-53 0-29-24-52-53-52z m24 35c1-6-4-11-9-11-6-1-11 3-11 8-1 6 3 11 9 12 2 0 4 0 5-1v27l-26-4v-35h0c0 0 0 0 0 0 0-5-4-11-10-11-6-1-10 3-11 9 0 5 4 10 10 11 1 0 3 0 5-1v40 0l38 6 0 0 0 0h0l0 0v-50h0c0 0 0 0 0 0z" horiz-adv-x="1000" />
<glyph glyph-name="slashdot" unicode="&#xe806;" d="m94-142l442 992h191l-441-992h-192z m812 150c0 87-71 158-159 158-88 0-159-71-159-158 0-87 71-158 159-158 88 0 159 71 159 158z" horiz-adv-x="1000" />
<glyph glyph-name="technorati" unicode="&#xe807;" d="m163 819c47 5 94 2 141 3-47-59-89-128-95-206-14-120 47-238 140-312 24-13 15-43 14-66-6-57-14-114-18-171 72 41 137 96 211 135 150-28 313-11 444 72 0-66 0-132 0-198 2-75-45-150-114-180-32-16-68-19-103-18-199 1-397 0-596 0-99 1-186 90-187 190-1 182 1 365 1 548-6 95 69 186 162 203z m262-129c-34-34-58-80-58-129-4-66 33-130 85-169 110-83 269-90 388-23 66 37 120 104 121 182 2 69-38 134-93 172-62 46-140 66-216 63-84-2-169-34-227-96z" horiz-adv-x="1000" />
<glyph glyph-name="tapiture" unicode="&#xe808;" d="m436 839c-8-1-31-6-51-10-20-4-64-20-98-36-111-54-176-119-230-230-38-80-47-120-47-213 0-93 9-133 47-213 55-111 119-176 230-230 80-38 120-47 213-47 93 0 133 9 213 47 111 54 176 119 230 230 38 80 47 120 47 213 0 93-9 133-47 213-36 72-78 127-131 169-45 36-132 81-184 95-37 10-166 18-192 12z m149-73c78-17 154-59 213-118 169-169 169-427 0-596-169-169-427-169-596 0-169 169-169 427 0 596 103 103 243 147 383 118z m-131-193c-52-7-101-23-150-48-69-34-66-25-34-123 15-47 29-104 32-126 3-36 5-41 16-37 21 6 140-11 194-28 50-17 106-42 102-47-2-1-39 8-83 21-106 31-181 40-235 31-56-10-73-22-73-52 0-21 3-25 26-35 23-10 29-10 99 5 103 21 124 23 211 13 124-14 226 8 261 56 13 18 13 21 4 48-10 30-42 52-85 62l-23 5 11-27c17-39 23-63 16-63-21 0-53 114-73 253l-12 81-23 6c-42 8-138 11-181 5z" horiz-adv-x="1000" />
<glyph glyph-name="posterous" unicode="&#xe809;" d="m82 835c0 0-1-1-3-1-1 0-3 0-3 0 0 0-1 0-2 0 0-1-2-1-3-1 0 0-1 0-2-1-5-1-15-5-21-9-15-10-25-24-30-41-1-5-2-8-2-12-1-3-1-304 0-307 2-16 9-31 20-43 4-3 5-5 7-6 1-1 2-1 2-1 1-1 6-4 8-5 1-1 2-2 3-2 0 0 1-1 2-1 6-3 13-5 17-5 2-1 3-1 4-1 1 0 18 0 33-1 3 0 6 0 6 0 1 0 14 0 31 0 16 0 30 0 30 0 0 0 3 0 6 0 3 0 6 0 6 0 0 0 3 0 6 0 3 0 6 0 6 0 0 0 3 0 6 0 3 0 6 0 6 0 1 0 14 0 31 0 16 0 30 0 30 0 0 0 3 0 6 0 3 0 6 0 6 0 0 0 3 0 6 0 3 0 6 0 6 0 0 0 3 0 6 0 3 0 6 0 6 0 0 0 14 0 30 0 17 0 31 0 31 0 7 1 14 1 15 1 0 0 2 0 3 1 20 3 39 16 50 34 5 7 8 17 10 26 0 1 0 2 0 3 0 0 0 33 0 73 0 41 1 74 1 74 0 1 0 4 0 7 0 3 0 5 0 6 0 0 0 14 0 30 0 16 0 30 0 30 0 1 0 12 0 15 0 1-1 18-1 37 0 19 0 36 0 36 0 1 0 2 0 3-1 1-1 2-1 2 0 0 0 1 0 2 0 0-1 2-1 4-5 17-16 32-31 41-6 4-15 8-22 10-2 0-7 1-9 1-2 1-305 1-305 1z m163-98c2 0 5 0 6 0 1-1 2-1 3-1 11-1 26-7 37-13 5-3 6-3 10-5 7-5 11-9 19-16 13-14 22-29 28-47 2-3 3-10 4-12 0-1 0-2 0-2 0-2 1-7 2-9 1-8 1-22 0-30-1-4-2-11-3-13 0 0 0-1 0-1 0-3-3-10-4-14-8-20-21-38-38-52-2-1-10-7-10-7 0 0-2-1-4-3-10-5-25-11-34-13 0 0-2-1-3-1-2 0-4-1-4-1-1 0-2 0-3 0-1 0-2-1-7-1-3 0-18 0-22 0-4 0-6 1-7 1 0 0-2 0-3 0-1 1-2 1-3 1-9 2-25 7-34 12-1 1-3 2-4 3-9 5-23 16-31 26-9 12-17 25-22 40-1 3-2 8-3 10 0 0 0 1 0 2 0 1-2 9-2 11 0 1 0 2 0 4-1 3-1 17 0 21 0 4 0 5 0 8 1 0 1 1 1 2 1 6 4 18 8 26 5 15 14 28 25 39 7 6 7 7 14 12 16 12 34 19 55 23 3 0 4 0 7 0 1 1 3 1 3 1 0 0 17 0 19-1z m371 98c0 0-1 0-3-1-4 0-6 0-11-2-21-6-37-20-46-39-3-5-5-12-6-17 0-1 0-1-1-2 0-1 0-2 0-7 0-1-1-10 0-10 0-1 0-1 0-1-1 0 0-289 0-290 1-10 3-18 7-26 2-4 6-11 7-12 0 0 0 0 1-1 2-3 7-9 11-11 1-1 2-2 2-3 6-4 19-10 26-12 0 0 1 0 3-1 1 0 3 0 4-1 1 0 2 0 2 0 1 0 28 0 61 0 32 0 60 0 61 0 3-1 14-1 15-1 0 0 13 0 30 0 16 0 30 0 30 0 0 0 3 0 6 0 3 0 6 0 7 0 0 1 22 1 49 1 27 0 49 0 50 0 0 0 2 0 3 0 14 3 28 10 39 20 4 5 6 7 9 12 7 9 11 21 12 32 1 3 1 304 0 308 0 1 0 2 0 2 0 1 0 2 0 2-1 1-1 3-1 5-6 21-20 38-40 48-2 1-5 2-5 2 0 0-2 1-3 1-3 1-7 2-10 3-2 0-3 0-4 0-1 1-305 1-305 1z m163-98c1 0 2 0 3 0 2 0 9-1 11-2 0 0 2 0 3-1 2 0 3 0 3-1 1 0 1 0 2 0 1 0 8-3 11-4 1 0 3-1 3-1 1 0 13-6 13-7 0 0 1-1 2-1 7-4 15-11 22-18 9-9 16-18 22-29 6-10 10-24 12-36 0-1 1-2 1-2 0 0 0-2 0-3 0-2 0-4 0-4 1-1 1-19 1-21-1-1-1-4-1-5 0-2 0-4-1-8-3-13-8-27-16-40-2-4-8-13-9-13 0-1-1-2-2-3-8-9-18-18-28-24-11-7-25-13-35-15-1 0-1 0-2 0-1-1-7-2-10-2-1 0-2 0-2-1-7-1-23-1-30 0-3 1-7 1-8 2 0 0-1 0-2 0 0 0-1 0-1 0-3 1-7 2-7 2 0 0-1 0-1 0-1 1-7 3-11 4-5 2-16 7-17 8 0 0 0 1-1 1-2 1-8 5-13 9-5 4-15 14-20 20-11 15-20 34-23 51 0 1-1 3-1 3 0 1 0 3-1 6 0 4 0 7 0 14 0 9 0 14 1 19 0 1 0 2 0 2 0 1 2 7 2 9 3 12 9 27 17 38 1 2 6 8 7 9 0 0 1 1 1 2 2 2 11 12 14 14 7 6 18 13 26 17 5 2 10 4 11 5 0 0 1 0 1 0 1 0 2 1 4 1 2 1 3 1 4 1 1 1 3 1 5 2 0 0 2 0 4 1 2 0 5 0 6 1 1 0 2 0 3 0 0 0 2 0 4 0 1 1 3 1 3 1 0 0 18 0 20-1z m-687-435c0 0-3 0-6-1-6 0-7 0-11-1-5 0-14-3-18-6-1 0-2 0-2 0 0 0-1-1-2-2-15-8-27-22-33-37-1-3-2-7-3-9 0-1 0-1 0-1 0 0 0-1 0-2-1-1-1-2-1-2 0-1 0-2 0-3-1-4-1-306 0-309 1-13 7-26 15-37 3-3 8-8 12-11 1-1 2-2 2-2 2-1 15-9 17-9 0 0 1 0 1 0 0-1 9-3 11-4 1 0 2 0 2 0 0 0 2 0 4 0 3-1 303-1 307 0 1 0 3 0 3 0 5 1 6 1 9 2 6 2 7 2 11 4 9 5 18 11 24 19 4 5 10 14 12 20 0 0 1 1 1 2 1 2 3 10 4 13 0 1 0 2 0 3 0 0 0 6 0 13 0 7 1 13 1 14 0 0 0 3 0 6 0 3 0 6 0 6 0 0 0 3 0 6 0 3 0 6 0 6 0 1 0 3 0 6 0 3 0 6 0 6 0 1 0 14 0 31 0 16 0 30 0 30 0 1 0 12 0 14 0 2-1 40-1 86 0 46 0 84 0 85 0 0 0 2-1 3 0 3-1 8-2 12-2 5-8 15-11 19-3 4-5 6-7 8-5 5-6 6-11 10-4 2-13 7-14 7 0 0-1 0-1 0 0 0-1 1-2 1-7 2-6 2-10 2-4 1-5 1-12 1-5 1-287 1-288 1z m152-106c4 0 5 0 6-1 5 0 5 0 9-1 10-2 21-6 30-11 4-2 13-7 13-8 0 0 2-1 3-2 3-2 3-2 8-6 12-11 24-26 30-41 1-2 2-4 2-4 2-4 5-14 7-19 1-5 1-6 1-10 0-1 1-2 1-2 0-1 0-2 0-5 1-7 0-22 0-26 0 0-1-2-1-3 0-1 0-2 0-2 0-1 0-1 0-2-1-4-3-11-5-16-6-18-16-34-30-49-2-1-4-3-4-4-1 0-2-1-2-1-4-4-13-10-18-13-2-1-11-5-13-6-1-1-2-1-3-1-1-1-2-1-2-1-3-1-14-5-18-5 0-1-1-1-2-1 0 0-1 0-1 0-1 0-2 0-3-1-2 0-3 0-6 0-5-1-6-1-12-1-7 0-11 0-13 1-1 0-2 0-4 0-3 0-11 2-14 3-1 0-2 0-3 1 0 0-2 0-4 1-12 4-24 10-34 17-2 2-4 3-4 3 0 1-2 2-3 3-17 14-29 32-36 53-1 3-4 12-4 15 0 0-1 2-1 3 0 1 0 3-1 4 0 1 0 2 0 2-1 3-1 24 0 30 1 4 1 7 1 8 3 16 10 31 19 45 2 3 6 8 7 9 0 0 1 1 2 2 1 3 8 9 12 13 9 8 21 15 32 20 5 2 13 5 17 6 2 0 7 1 8 2 1 0 2 0 3 0 0 0 1 0 2 0 1 0 3 1 3 1 1 0 3 0 5 0 2 0 4 0 4 0 0 1 14 0 16 0z m382 106c0 0-3 0-7-1-6 0-7 0-11-1-5 0-16-4-17-5 0 0-1-1-2-1-1 0-4-2-7-4-9-6-17-14-23-23-4-7-8-17-9-25 0 0 0-1-1-1 0-1 0-2 0-7 0-2-1-10 0-11 0 0 0 0 0 0-1-1 0-289 0-290 0-8 1-12 4-19 1-4 5-12 7-16 6-8 13-15 22-21 3-2 12-7 13-7 1 0 1 0 1 0 1-1 10-3 14-4 1 0 2 0 2 0 1-1 70-1 153-1 152 0 154 0 161 1 5 1 14 4 20 7 2 2 8 5 8 5 0 1 0 1 0 1 0 0 1 0 1 0 0 0 1 1 2 2 8 6 14 14 19 23 3 5 7 16 8 20 0 1 0 2 0 2 0 1 0 2 0 4 1 3 1 304 0 307-3 25-18 47-41 58-2 1-5 2-5 2 0 0-1 0-2 1-3 0-8 2-11 2-2 1-3 1-4 1-1 0-4 0-7 0-4 1-288 1-288 1z m151-106c1 0 3 0 4 0 1 0 2-1 3-1 0 0 1 0 2 0 13-2 29-7 41-15 3-1 12-7 13-8 0 0 1-1 2-2 9-7 19-17 25-27 7-9 12-20 15-30 1-4 3-10 3-12 0 0 0-1 0-1 1-1 1-2 1-2 0-1 0-2 0-3 0 0 1-1 1-2 0-1 0-2 0-3 1-5 1-25 0-30 0 0 0-1 0-2-3-17-9-35-19-50-2-3-6-8-7-9-1-1-2-2-3-3-9-11-23-22-36-29-3-1-9-4-10-4 0 0-1-1-1-1-2-1-9-3-10-3-1 0-2-1-3-1-3-1-12-3-15-3-1 0-2 0-4 0-3-1-5-1-12-1-7 0-9 0-16 1-3 0-10 2-13 2 0 0-1 1-1 1-2 0-7 2-10 3-31 10-56 33-70 62-4 9-7 17-9 26 0 4-1 5-1 9 0 0 0 1-1 2 0 4 0 7 0 14 0 9 0 13 1 19 2 13 5 23 11 36 1 3 6 10 8 14 9 13 20 24 32 32 4 3 14 9 14 9 0 0 2 1 4 1 9 5 22 9 29 10 0 0 1 0 2 0 1 0 2 0 5 1 1 0 3 0 5 0 2 0 4 0 4 0 0 1 14 0 16 0z" horiz-adv-x="1000" />
<glyph glyph-name="mail" unicode="&#xe80a;" d="m929 11v428q-18-20-39-37-149-114-238-188-28-24-46-38t-48-27-57-13h-2q-26 0-57 13t-48 27-46 38q-88 74-238 188-21 17-39 37v-428q0-8 6-13t12-5h822q7 0 12 5t6 13z m0 586v14t-1 7-1 7-3 5-5 4-8 2h-822q-7 0-12-6t-6-12q0-94 82-159 108-85 224-177 4-2 20-16t25-21 25-18 28-15 24-5h2q11 0 24 5t28 15 25 18 25 21 20 16q116 92 224 177 30 24 56 65t26 73z m71 21v-607q0-37-26-63t-63-27h-822q-36 0-63 27t-26 63v607q0 37 26 63t63 26h822q37 0 63-26t26-63z" horiz-adv-x="1000" />
<glyph glyph-name="star-empty" unicode="&#xe80b;" d="m634 290l171 165-235 35-106 213-105-213-236-35 171-165-41-235 211 111 211-111z m295 199q0-12-15-27l-203-197 48-279q1-4 1-12 0-28-23-28-10 0-22 7l-251 132-250-132q-13-7-23-7-11 0-17 9t-6 19q0 4 1 12l48 279-203 197q-14 15-14 27 0 21 31 26l280 40 126 254q11 23 27 23t28-23l125-254 280-40q32-5 32-26z" horiz-adv-x="928.6" />
<glyph glyph-name="linkedin-squared" unicode="&#xe80c;" d="m132 61h129v387h-129v-387z m138 507q-1 29-21 48t-51 19-53-19-21-48q0-29 20-48t52-19h0q33 0 53 19t21 48z m326-507h129v222q0 86-41 130t-108 44q-75 0-116-65h1v56h-129q2-37 0-387h129v216q0 22 4 32 8 19 25 33t41 14q65 0 65-88v-207z m261 557v-536q0-66-47-113t-114-48h-535q-67 0-114 48t-47 113v536q0 66 47 113t114 48h535q67 0 114-48t47-113z" horiz-adv-x="857.1" />
<glyph glyph-name="gplus" unicode="&#xe80d;" d="m410 406q0-20 18-40t43-37 51-41 43-59 18-79q0-50-27-96-40-68-118-101t-166-32q-74 0-138 24t-95 76q-21 34-21 73 0 46 25 84t66 64q73 46 225 56-18 24-26 41t-9 41q0 20 12 48-26-3-38-3-83 0-139 54t-57 137q0 45 20 88t55 73q43 37 102 55t122 18h233l-77-49h-73q41-35 62-74t21-90q0-40-13-72t-33-52-39-36-33-34-14-37z m-81 53q21 0 43 10t37 24q30 32 30 89 0 32-10 69t-27 73-47 57-65 23q-24 0-46-11t-37-29q-26-33-26-89 0-26 5-55t18-57 29-52 42-37 54-15z m1-487q32 0 62 7t55 22 41 41 15 61q0 14-4 27t-8 24-15 23-16 19-22 20-20 16-23 16-21 15q-8 1-26 1-30 0-59-4t-60-14-54-25-38-42-15-59q0-39 19-69t51-46 67-25 71-8z m452 489h119v-60h-119v-122h-59v122h-118v60h118v121h59v-121z" horiz-adv-x="928.6" />
<glyph glyph-name="facebook-squared" unicode="&#xe80e;" d="m696 779q67 0 114-48t47-113v-536q0-66-47-113t-114-48h-104v332h111l16 130h-127v83q0 31 13 46t51 16l68 1v115q-35 5-100 5-75 0-121-45t-45-126v-95h-112v-130h112v-332h-297q-67 0-114 48t-47 113v536q0 66 47 113t114 48h535z" horiz-adv-x="857.1" />
<glyph glyph-name="pinterest-circled" unicode="&#xe80f;" d="m857 350q0-117-57-215t-156-156-215-58q-62 0-122 18 33 52 43 92 5 19 31 118 11-22 40-38t64-16q67 0 120 38t83 105 29 151q0 64-34 119t-96 91-142 36q-59 0-110-17t-86-43-61-61-37-72-12-75q0-58 22-102t66-62q16-7 21 11 1 4 4 17t5 17q3 13-6 24-29 34-29 84 0 84 58 145t153 61q84 0 131-46t48-119q0-95-39-161t-98-67q-34 0-54 24t-13 59q4 19 15 52t16 57 7 43q0 27-15 46t-43 18q-35 0-59-31t-24-80q0-40 14-68l-55-233q-10-39-7-99-115 51-186 157t-71 236q0 117 58 215t155 156 216 58 215-58 156-156 57-215z" horiz-adv-x="857.1" />
<glyph glyph-name="reddit" unicode="&#xe810;" d="m842 53q0-8-7-17-29-33-82-46t-110-13q-140 0-193 59-6 9-6 17 0 9 6 16t17 7q8 0 16-7 33-27 70-36t89-10 90 10 70 36q9 7 17 7 10 0 16-7t7-16z m-296 218q0-34-24-58t-58-24q-34 0-59 24t-24 58q0 34 24 58t59 25 58-25 24-58z m359 0q0-34-24-58t-58-24q-33 0-58 24t-25 58q0 34 25 58t58 25 58-25 24-58z m-673 164q-22 15-49 15-37 0-64-26t-26-63q0-40 30-67 30 78 109 141z m895-229q0 124-139 216-71 47-162 71t-185 23-185-23-164-71q-138-92-138-216t138-216q72-47 164-70t185-24 185 24 162 70q139 92 139 216z m65 155q0 37-26 63t-63 26q-28 0-52-16 78-64 107-143 34 27 34 70z m-80 377q0 27-19 46t-46 20q-27 0-47-20t-19-46q0-27 19-46t47-19q27 0 46 19t19 46z m127-377q0-36-19-68t-49-50q3-20 3-37 0-78-45-143t-116-112q-78-51-175-76t-197-25-198 25-176 76q-72 47-116 112t-44 143q0 20 4 40-30 18-47 49t-17 66q0 56 40 96t96 40q50 0 88-34 148 95 356 99l81 255q5 16 22 16 13 0 214-51 14 31 41 50t62 18q46 0 79-33t32-79-32-79-79-33q-46 0-79 33t-33 78l-189 45-70-220q195-9 336-100 40 35 91 35 57 0 96-40t40-96z" horiz-adv-x="1285.7" />
<glyph glyph-name="stumbleupon" unicode="&#xe811;" d="m593 453v66q0 23-17 40t-40 16-40-16-17-40v-342q0-98-70-167t-170-69q-99 0-169 70t-70 169v149h183v-146q0-24 17-41t40-16 40 16 17 41v346q0 95 70 163t169 67q98 0 168-68t71-164v-76l-109-32z m295-124h183v-149q0-99-70-169t-169-70q-99 0-169 69t-70 168v150l73-34 109 32v-151q0-23 16-40t40-16 41 16 16 40v154z" horiz-adv-x="1071.4" />
<glyph glyph-name="tumblr" unicode="&#xe812;" d="m527 108l44-132q-12-19-61-37t-99-18q-58-1-107 15t-79 41-53 59-31 67-9 66v304h-94v120q40 14 72 39t51 50 32 57 19 55 8 49q1 3 3 5t4 2h136v-237h186v-140h-186v-289q0-17 3-32t13-29 28-23 45-8q44 1 75 16z" horiz-adv-x="571.4" />
<glyph glyph-name="twitter" unicode="&#xe813;" d="m904 622q-37-54-90-93 0-8 0-23 0-73-21-145t-64-139-103-117-144-82-181-30q-151 0-276 81 19-3 43-3 126 0 224 77-59 2-105 36t-64 89q19-2 34-2 24 0 48 6-63 13-104 62t-41 115v2q38-21 82-23-37 25-59 64t-22 86q0 49 25 91 68-83 164-133t208-55q-5 21-5 41 0 75 53 127t127 53q79 0 132-57 61 12 114 44-20-64-79-100 52 6 104 28z" horiz-adv-x="928.6" />
<glyph glyph-name="vkontakte" unicode="&#xe814;" d="m1070 560q13-36-84-164-13-18-36-48-44-56-50-73-10-23 7-45 10-12 46-46h0l1 0 0-1 1-1q79-73 107-123 2-3 4-7t3-15 0-19-14-15-33-7l-143-3q-13-2-31 3t-29 12l-11 7q-17 12-39 36t-38 43-34 32-32 9q-1 0-4-2t-10-8-12-16-9-29-4-44q0-8-2-15t-4-10l-2-3q-10-11-30-12h-64q-40-3-81 9t-74 29-57 37-40 32l-14 14q-5 5-15 16t-40 51-59 84-68 118-73 152q-4 9-4 15t2 9l2 3q9 11 32 11l153 1q7-1 13-4t9-4l3-2q9-6 13-18 11-28 26-58t23-45l9-16q16-34 31-58t27-38 23-22 19-8 15 3q1 1 3 3t7 12 7 26 5 46 0 69q-1 23-5 41t-7 26l-4 6q-14 19-47 24-8 2 3 14 9 10 21 17 29 14 133 13 46-1 75-7 12-3 19-8t12-13 5-18 2-26 0-30-2-40 0-46q0-6-1-23t0-27 2-22 6-22 13-14q4-1 9-2t15 6 21 19 29 38 38 60q33 58 60 125 2 6 5 10t6 6l2 2 3 1t8 2 11 0l160 1q22 3 36-1t17-10z" horiz-adv-x="1071.4" />
<glyph glyph-name="delicious" unicode="&#xe815;" d="m821 82v268h-392v393h-268q-52 0-89-37t-36-88v-268h393v-393h267q52 0 89 37t36 88z m36 536v-536q0-66-47-113t-114-48h-535q-67 0-114 48t-47 113v536q0 66 47 113t114 48h535q67 0 114-48t47-113z" horiz-adv-x="857.1" />
</font>
</defs>
</svg>
